<?xml version="1.0" standalone="no"?>
<!DOCTYPE svg PUBLIC "-//W3C//DTD SVG 1.1//EN" "http://www.w3.org/Graphics/SVG/1.1/DTD/svg11.dtd" >
<svg xmlns="http://www.w3.org/2000/svg" xmlns:xlink="http://www.w3.org/1999/xlink" version="1.1">
<metadata>
Created by FontForge 20170924 at Tue Nov 26 04:46:05 347880176
 By www-data
Copyright 1995 Image Club Graphics, Inc.
</metadata>
<defs>
<font id="RepublikSansICG01" horiz-adv-x="900" >
  <font-face 
    font-family="Republik Sans ICG 01"
    font-weight="400"
    font-stretch="normal"
    units-per-em="1100"
    panose-1="0 0 4 0 0 0 0 0 0 0"
    ascent="880"
    descent="-220"
    x-height="780"
    cap-height="780"
    bbox="-107 -260 1531 1162"
    underline-thickness="20"
    underline-position="-143"
    unicode-range="U+0020-F002"
  />
<missing-glyph horiz-adv-x="550" 
d="M69 0v850h412v-850h-412zM138 69h275v712h-275v-712z" />
    <glyph glyph-name=".notdef" horiz-adv-x="550" 
d="M69 0v850h412v-850h-412zM138 69h275v712h-275v-712z" />
    <glyph glyph-name=".null" horiz-adv-x="0" 
 />
    <glyph glyph-name="nonmarkingreturn" horiz-adv-x="400" 
 />
    <glyph glyph-name="space" unicode=" " horiz-adv-x="400" 
 />
    <glyph glyph-name="exclam" unicode="!" horiz-adv-x="200" 
d="M150 150h-100v630h100v-630zM150 0h-100v100h100v-100z" />
    <glyph glyph-name="quotedbl" unicode="&#x22;" horiz-adv-x="499" 
d="M449 760l-101 -376l-97 26l101 376zM248 760l-101 -376l-97 26l101 376z" />
    <glyph glyph-name="numbersign" unicode="#" horiz-adv-x="859" 
d="M809 635l-27 -100h-145l-46 -170h146l-27 -100h-145l-39 -145h-110l39 145h-150l-39 -145h-110l39 145h-145l27 100h144l46 170h-145l27 100h145l39 145h110l-39 -145h150l39 145h110l-39 -145h145zM527 535h-150l-46 -170h150z" />
    <glyph glyph-name="dollar" unicode="$" horiz-adv-x="788" 
d="M738 166q-103 -160 -294 -183v-103h-100v103q-191 23 -294 183l103 28q94 -114 241 -114q116 0 202 75l-546 459q103 160 294 183v103h100v-103q191 -23 294 -183l-103 -28q-94 114 -241 114q-117 0 -203 -75z" />
    <glyph glyph-name="percent" unicode="%" horiz-adv-x="1100" 
d="M1045 237q0 -112 -67 -183q-61 -65 -143 -65t-143 65q-67 71 -67 183q0 111 67 182q61 65 143 65t143 -65q67 -71 67 -182zM811 858l-409 -880l-114 22l411 880zM475 622q0 -112 -67 -183q-61 -65 -143 -65t-143 65q-67 71 -67 183q0 111 67 182q61 65 143 65t143 -65
q67 -71 67 -182zM935 237q0 60 -29.5 98.5t-70.5 38.5t-70.5 -38.5t-29.5 -98.5q0 -61 29.5 -99.5t70.5 -38.5t70.5 38.5t29.5 99.5zM365 622q0 60 -29.5 98.5t-70.5 38.5t-70.5 -38.5t-29.5 -98.5q0 -61 29.5 -99.5t70.5 -38.5t70.5 38.5t29.5 99.5z" />
    <glyph glyph-name="ampersand" unicode="&#x26;" horiz-adv-x="885" 
d="M835 265q-31 -90 -99 -159l83 -106h-125l-35 44q-101 -64 -224 -64q-127 0 -233 70q-102 68 -152 180l234 290l-204 260h647v-100h-442l389 -495q52 57 72 131zM597 123l-249 316l-178 -220q44 -64 114 -101.5t151 -37.5q86 0 162 43z" />
    <glyph glyph-name="quotesingle" unicode="'" horiz-adv-x="298" 
d="M248 760l-101 -376l-97 26l101 376z" />
    <glyph glyph-name="parenleft" unicode="(" horiz-adv-x="393" 
d="M343 -27l-105 -29q-137 187 -188 446q51 259 188 446l105 -29q-136 -162 -191 -417q55 -255 191 -417z" />
    <glyph glyph-name="parenright" unicode=")" horiz-adv-x="393" 
d="M343 390q-51 -259 -188 -446l-105 29q136 162 191 417q-55 255 -191 417l105 29q137 -187 188 -446z" />
    <glyph glyph-name="asterisk" unicode="*" horiz-adv-x="540" 
d="M490 524h-134l67 -116l-86 -50l-67 116l-67 -116l-86 50l66 116h-133v100h134l-67 116l86 50l67 -116l67 116l86 -50l-67 -116h134v-100z" />
    <glyph glyph-name="plus" unicode="+" horiz-adv-x="540" 
d="M490 340h-170v-170h-100v170h-170v100h170v170h100v-170h170v-100z" />
    <glyph glyph-name="comma" unicode="," horiz-adv-x="260" 
d="M210 -85h-65v85h-95v160h160v-245z" />
    <glyph glyph-name="hyphen" unicode="-" horiz-adv-x="490" 
d="M440 340h-390v100h390v-100z" />
    <glyph glyph-name="hyphen" unicode="&#x2010;" horiz-adv-x="490" 
d="M440 340h-390v100h390v-100z" />
    <glyph glyph-name="period" unicode="." horiz-adv-x="260" 
d="M210 0h-160v160h160v-160z" />
    <glyph glyph-name="slash" unicode="/" horiz-adv-x="575" 
d="M525 780l-372 -800l-103 20l373 800z" />
    <glyph glyph-name="zero" unicode="0" horiz-adv-x="795" 
d="M745 391q0 -185 -111 -303q-102 -107 -237 -107t-236 107q-111 118 -111 303q0 184 111 302q101 107 236 107t237 -107q111 -118 111 -302zM645 391q0 137 -78 226q-72 83 -170 83t-170 -83q-77 -89 -77 -226q0 -138 77 -227q72 -83 170 -83t170 83q78 89 78 227z" />
    <glyph glyph-name="one" unicode="1" horiz-adv-x="285" 
d="M235 0h-100v715h-85v65h185v-780z" />
    <glyph glyph-name="two" unicode="2" horiz-adv-x="786" 
d="M736 0h-686l557 596q-96 104 -238 104q-141 0 -236 -103l-83 58q127 145 319 145q116 0 215 -58q96 -57 152 -154l-456 -488h456v-100z" />
    <glyph glyph-name="three" unicode="3" horiz-adv-x="790" 
d="M740 210q-53 -104 -154 -167t-222 -63q-189 0 -314 140l82 58q95 -98 232 -98q162 0 259 130q-97 130 -259 130v100q162 0 259 130q-97 130 -259 130q-137 0 -232 -97l-82 57q125 140 314 140q121 0 222 -63t154 -167q-59 -116 -177 -180q117 -62 177 -180z" />
    <glyph glyph-name="four" unicode="4" horiz-adv-x="871" 
d="M821 150h-150v-150h-100v150h-521q96 211 256 377q164 169 365 262v-539h150v-100zM571 250v368q-213 -141 -354 -368h354z" />
    <glyph glyph-name="five" unicode="5" horiz-adv-x="796" 
d="M746 230q-50 -112 -155 -180q-108 -70 -235 -70q-180 0 -306 128l100 48q93 -76 206 -76q163 0 275 150q-111 151 -275 151q-114 0 -206 -77l-100 49v427h656v-100h-556v-252q95 53 206 53q128 0 234.5 -69.5t155.5 -181.5z" />
    <glyph glyph-name="six" unicode="6" horiz-adv-x="880" 
d="M830 230q-50 -112 -155 -180q-108 -70 -235 -70t-233.5 69t-156.5 181q122 303 354 550h140q-170 -167 -274 -334q83 35 170 35q128 0 234.5 -69.5t155.5 -181.5zM715 230q-111 151 -275 151q-165 0 -274 -151q110 -150 274 -150q163 0 275 150z" />
    <glyph glyph-name="seven" unicode="7" horiz-adv-x="755" 
d="M705 780l-360 -780h-110l313 680h-498v100h655z" />
    <glyph glyph-name="eight" unicode="8" horiz-adv-x="901" 
d="M851 210q-58 -108 -165 -169t-236 -61t-236 61t-164 169q63 118 184 180q-120 60 -184 180q57 108 164 169t236 61t236 -61t165 -169q-62 -117 -186 -180q122 -60 186 -180zM735 570q-42 60 -119 95t-166 35t-166 -35t-119 -95q42 -60 119 -95t166 -35t166 35t119 95z
M735 210q-42 60 -119 95t-166 35t-166 -35t-119 -95q42 -60 119 -95t166 -35t166 35t119 95z" />
    <glyph glyph-name="nine" unicode="9" horiz-adv-x="880" 
d="M830 549q-13 -28 -32 -58l-318 -491h-118l206 319q-62 -20 -128 -20q-127 0 -233.5 69t-156.5 181q49 112 155.5 181.5t234.5 69.5t234.5 -69.5t155.5 -181.5zM715 549q-111 151 -275 151q-165 0 -274 -151q110 -150 274 -150q163 0 275 150z" />
    <glyph glyph-name="colon" unicode=":" horiz-adv-x="260" 
d="M210 395h-160v160h160v-160zM210 0h-160v160h160v-160z" />
    <glyph glyph-name="semicolon" unicode=";" horiz-adv-x="260" 
d="M210 395h-160v160h160v-160zM210 -85h-65v85h-95v160h160v-245z" />
    <glyph glyph-name="less" unicode="&#x3c;" horiz-adv-x="540" 
d="M490 180l-440 160v106l440 160v-106l-295 -107l295 -107v-106z" />
    <glyph glyph-name="equal" unicode="=" horiz-adv-x="540" 
d="M490 440h-440v100h440v-100zM490 240h-440v100h440v-100z" />
    <glyph glyph-name="greater" unicode="&#x3e;" horiz-adv-x="540" 
d="M490 340l-440 -160v106l295 107l-295 107v106l440 -160v-106z" />
    <glyph glyph-name="question" unicode="?" horiz-adv-x="794" 
d="M744 570q-48 -93 -134 -153.5t-192 -73.5v-193h-100v290h50q162 0 259 130q-97 130 -259 130q-141 0 -236 -103l-82 58q127 145 318 145q121 0 222 -63t154 -167zM418 0h-100v100h100v-100z" />
    <glyph glyph-name="at" unicode="@" horiz-adv-x="846" 
d="M796 452q0 -116 -79 -206q-74 -86 -157 -86q-30 0 -58.5 21.5t-43.5 52.5q-52 -74 -117 -74q-62 0 -106.5 55t-44.5 133q0 113 70 193.5t167 80.5q60 0 86 -45l9 36h129l-82 -329q-6 -24 -6 -38q0 -17 8 -17q47 0 98 62q57 71 57 161q0 121 -77.5 196t-207.5 75t-224 -94
q-98 -98 -98 -238q0 -136 94.5 -233.5t227.5 -97.5q91 0 162 41q64 38 99 102h80q-35 -80 -103 -135q-97 -78 -238 -78q-165 0 -280 121q-111 118 -111 280q0 156 108 274q114 125 283 125q162 0 260 -98q95 -94 95 -240zM482 492q0 22 -11 43q-14 25 -33 25q-51 0 -85 -73
t-34 -176q0 -82 40 -82q45 0 85 96q38 89 38 167z" />
    <glyph glyph-name="A" unicode="A" horiz-adv-x="874" 
d="M844 0h-112l-69 135h-452l-69 -135h-112l407 800zM612 235l-175 345l-176 -345h351z" />
    <glyph glyph-name="B" unicode="B" horiz-adv-x="790" 
d="M760 226q-228 -226 -488 -226h-222v780h222q246 0 444 -204q-92 -115 -207 -165q138 -63 251 -185zM579 569q-129 111 -307 111h-122v-215h122q197 0 307 104zM617 229q-70 61 -159 98q-94 38 -186 38h-122v-265h122q188 0 345 129z" />
    <glyph glyph-name="C" unicode="C" horiz-adv-x="777" 
d="M747 107q-122 -127 -297 -127q-170 0 -290 120t-120 290t120 290t290 120q175 0 297 -127l-84 -58q-90 85 -213 85q-129 0 -219.5 -90.5t-90.5 -219.5t90.5 -219.5t219.5 -90.5q123 0 213 85z" />
    <glyph glyph-name="D" unicode="D" horiz-adv-x="790" 
d="M760 390q-79 -160 -241 -275t-312 -115h-157v780h157q152 0 314 -116q159 -114 239 -274zM647 390q-65 117 -190 202q-130 88 -250 88h-57v-580h57q118 0 249 88q125 85 191 202z" />
    <glyph glyph-name="E" unicode="E" horiz-adv-x="750" 
d="M700 0h-650v780h650v-100h-550v-240h400v-100h-400v-240h550v-100z" />
    <glyph glyph-name="F" unicode="F" horiz-adv-x="750" 
d="M700 680h-550v-240h400v-100h-400v-340h-100v780h650v-100z" />
    <glyph glyph-name="G" unicode="G" 
d="M860 390q0 -170 -120 -290t-290 -120t-290 120t-120 290t120 290t290 120q175 0 297 -127l-84 -58q-90 85 -213 85q-129 0 -219.5 -90.5t-90.5 -219.5t90.5 -219.5t219.5 -90.5q110 0 194.5 68t107.5 172h-222v100h329q0 -5 1 -15v-15z" />
    <glyph glyph-name="H" unicode="H" horiz-adv-x="770" 
d="M720 0h-100v340h-470v-340h-100v780h100v-340h470v340h100v-780z" />
    <glyph glyph-name="I" unicode="I" horiz-adv-x="200" 
d="M150 0h-100v780h100v-780z" />
    <glyph glyph-name="J" unicode="J" horiz-adv-x="663" 
d="M613 88q-141 -109 -320 -109q-142 0 -263 71l50 86q98 -57 213 -57q120 0 220 61v640h100v-692z" />
    <glyph glyph-name="K" unicode="K" horiz-adv-x="705" 
d="M675 0h-153l-372 323v-323h-100v780h100v-323l373 323h152l-448 -390z" />
    <glyph glyph-name="L" unicode="L" horiz-adv-x="750" 
d="M700 0h-650v780h100v-680h550v-100z" />
    <glyph glyph-name="M" unicode="M" horiz-adv-x="879" 
d="M829 0h-100v566l-290 -277l-289 277v-566h-100v800l389 -373l390 373v-800z" />
    <glyph glyph-name="N" unicode="N" horiz-adv-x="770" 
d="M720 -21l-570 577v-556h-100v799l570 -575v556h100v-801z" />
    <glyph glyph-name="O" unicode="O" 
d="M860 390q0 -170 -120 -290t-290 -120t-290 120t-120 290t120 290t290 120t290 -120t120 -290zM760 390q0 129 -90.5 219.5t-219.5 90.5t-219.5 -90.5t-90.5 -219.5t90.5 -219.5t219.5 -90.5t219.5 90.5t90.5 219.5z" />
    <glyph glyph-name="P" unicode="P" horiz-adv-x="766" 
d="M736 484q-76 -130 -208.5 -214t-266.5 -84h-111v-186h-100v780h211q134 0 267 -87q125 -81 208 -209zM617 481q-63 84 -155 138q-101 61 -201 61h-111v-394h111q98 0 200 58q98 55 156 137z" />
    <glyph glyph-name="Q" unicode="Q" 
d="M916 0h-142l-69 68q-112 -88 -255 -88q-170 0 -290 120t-120 290t120 290t290 120t290 -120t120 -290q0 -141 -85 -250zM760 390q0 129 -90.5 220t-219.5 91t-219.5 -91t-90.5 -220t90.5 -219.5t219.5 -90.5q102 0 184 60l-165 165h142l93 -93q56 80 56 178z" />
    <glyph glyph-name="R" unicode="R" horiz-adv-x="766" 
d="M736 484q-100 -170 -278 -252l277 -232h-155l-232 195q-44 -9 -87 -9h-111v-186h-100v780h211q134 0 267 -87q125 -81 208 -209zM617 481q-63 84 -155 138q-101 61 -201 61h-111v-394h111q98 0 200 58q98 55 156 137z" />
    <glyph glyph-name="S" unicode="S" horiz-adv-x="748" 
d="M718 166q-56 -86 -145 -135q-93 -51 -199 -51t-199 51q-89 49 -145 135l103 28q94 -114 241 -114q116 0 202 75l-546 459q56 86 146.5 136t197.5 50q106 0 199 -51q89 -49 145 -135l-103 -28q-94 114 -241 114q-117 0 -203 -75z" />
    <glyph glyph-name="T" unicode="T" horiz-adv-x="750" 
d="M700 680h-275v-680h-100v680h-275v100h650v-100z" />
    <glyph glyph-name="U" unicode="U" horiz-adv-x="770" 
d="M720 466q0 -172 -91 -291q-78 -104 -244 -189q-166 85 -244 189q-91 119 -91 291v314h100v-314q0 -141 71 -231q59 -75 164 -135q105 60 164 135q71 90 71 231v314h100v-314z" />
    <glyph glyph-name="V" unicode="V" horiz-adv-x="874" 
d="M844 780l-407 -800l-407 800h112l295 -580l295 580h112z" />
    <glyph glyph-name="W" unicode="W" horiz-adv-x="1136" 
d="M1106 780l-377 -800l-161 339l-161 -339l-377 800h110l267 -566l161 339l161 -339l267 566h110z" />
    <glyph glyph-name="X" unicode="X" horiz-adv-x="804" 
d="M767 780q-54 -150 -137 -247q-66 -77 -142 -134q83 -66 143 -142q81 -104 133 -257h-106q-43 117 -104 194t-152 144q-88 -64 -150.5 -142.5t-105.5 -195.5h-106q52 153 133 257q60 76 143 142q-79 60 -142 134q-83 97 -137 247h106q44 -109 107.5 -183t151.5 -137
q90 64 153 138t106 182h106z" />
    <glyph glyph-name="Y" unicode="Y" horiz-adv-x="772" 
d="M732 780q-23 -187 -97 -299q-68 -103 -199 -195v-286h-100v286q-131 92 -199 195q-74 112 -97 299h101q20 -153 80 -245q56 -86 165 -163q109 77 165 163q60 92 80 245h101z" />
    <glyph glyph-name="Z" unicode="Z" horiz-adv-x="815" 
d="M766 780l-531 -680h530v-100h-735l531 680h-496v100h701z" />
    <glyph glyph-name="bracketleft" unicode="[" horiz-adv-x="330" 
d="M280 0h-230v780h230v-100h-130v-580h130v-100z" />
    <glyph glyph-name="backslash" unicode="\" horiz-adv-x="575" 
d="M524 0l-103 -20l-372 800l102 20z" />
    <glyph glyph-name="bracketright" unicode="]" horiz-adv-x="330" 
d="M280 0h-230v100h130v580h-130v100h230v-780z" />
    <glyph glyph-name="asciicircum" unicode="^" horiz-adv-x="574" 
d="M524 390h-110l-127 272l-127 -272h-110l183 390h108z" />
    <glyph glyph-name="underscore" unicode="_" horiz-adv-x="550" 
d="M550 -200h-550v100h550v-100z" />
    <glyph glyph-name="grave" unicode="`" horiz-adv-x="389" 
d="M338 922l-50 -87l-239 137l51 87z" />
    <glyph glyph-name="a" unicode="a" horiz-adv-x="874" 
d="M844 0h-112l-69 135h-452l-69 -135h-112l407 800zM612 235l-175 345l-176 -345h351z" />
    <glyph glyph-name="b" unicode="b" horiz-adv-x="790" 
d="M760 226q-228 -226 -488 -226h-222v780h222q246 0 444 -204q-92 -115 -207 -165q138 -63 251 -185zM579 569q-129 111 -307 111h-122v-215h122q197 0 307 104zM617 229q-70 61 -159 98q-94 38 -186 38h-122v-265h122q188 0 345 129z" />
    <glyph glyph-name="c" unicode="c" horiz-adv-x="777" 
d="M747 107q-122 -127 -297 -127q-170 0 -290 120t-120 290t120 290t290 120q175 0 297 -127l-84 -58q-90 85 -213 85q-129 0 -219.5 -90.5t-90.5 -219.5t90.5 -219.5t219.5 -90.5q123 0 213 85z" />
    <glyph glyph-name="d" unicode="d" horiz-adv-x="790" 
d="M760 390q-79 -160 -241 -275t-312 -115h-157v780h157q152 0 314 -116q159 -114 239 -274zM647 390q-65 117 -190 202q-130 88 -250 88h-57v-580h57q118 0 249 88q125 85 191 202z" />
    <glyph glyph-name="e" unicode="e" horiz-adv-x="750" 
d="M700 0h-650v780h650v-100h-550v-240h400v-100h-400v-240h550v-100z" />
    <glyph glyph-name="f" unicode="f" horiz-adv-x="750" 
d="M700 680h-550v-240h400v-100h-400v-340h-100v780h650v-100z" />
    <glyph glyph-name="g" unicode="g" 
d="M860 390q0 -170 -120 -290t-290 -120t-290 120t-120 290t120 290t290 120q175 0 297 -127l-84 -58q-90 85 -213 85q-129 0 -219.5 -90.5t-90.5 -219.5t90.5 -219.5t219.5 -90.5q110 0 194.5 68t107.5 172h-222v100h329q0 -5 1 -15v-15z" />
    <glyph glyph-name="h" unicode="h" horiz-adv-x="770" 
d="M720 0h-100v340h-470v-340h-100v780h100v-340h470v340h100v-780z" />
    <glyph glyph-name="i" unicode="i" horiz-adv-x="200" 
d="M150 0h-100v780h100v-780z" />
    <glyph glyph-name="j" unicode="j" horiz-adv-x="663" 
d="M613 88q-141 -109 -320 -109q-142 0 -263 71l50 86q98 -57 213 -57q120 0 220 61v640h100v-692z" />
    <glyph glyph-name="k" unicode="k" horiz-adv-x="705" 
d="M675 0h-153l-372 323v-323h-100v780h100v-323l373 323h152l-448 -390z" />
    <glyph glyph-name="l" unicode="l" horiz-adv-x="750" 
d="M700 0h-650v780h100v-680h550v-100z" />
    <glyph glyph-name="m" unicode="m" horiz-adv-x="879" 
d="M829 0h-100v566l-290 -277l-289 277v-566h-100v800l389 -373l390 373v-800z" />
    <glyph glyph-name="n" unicode="n" horiz-adv-x="770" 
d="M720 -21l-570 577v-556h-100v799l570 -575v556h100v-801z" />
    <glyph glyph-name="o" unicode="o" 
d="M860 390q0 -170 -120 -290t-290 -120t-290 120t-120 290t120 290t290 120t290 -120t120 -290zM760 390q0 129 -90.5 219.5t-219.5 90.5t-219.5 -90.5t-90.5 -219.5t90.5 -219.5t219.5 -90.5t219.5 90.5t90.5 219.5z" />
    <glyph glyph-name="p" unicode="p" horiz-adv-x="766" 
d="M736 484q-76 -130 -208.5 -214t-266.5 -84h-111v-186h-100v780h211q134 0 267 -87q125 -81 208 -209zM617 481q-63 84 -155 138q-101 61 -201 61h-111v-394h111q98 0 200 58q98 55 156 137z" />
    <glyph glyph-name="q" unicode="q" 
d="M916 0h-142l-69 68q-112 -88 -255 -88q-170 0 -290 120t-120 290t120 290t290 120t290 -120t120 -290q0 -141 -85 -250zM760 390q0 129 -90.5 220t-219.5 91t-219.5 -91t-90.5 -220t90.5 -219.5t219.5 -90.5q102 0 184 60l-165 165h142l93 -93q56 80 56 178z" />
    <glyph glyph-name="r" unicode="r" horiz-adv-x="766" 
d="M736 484q-100 -170 -278 -252l277 -232h-155l-232 195q-44 -9 -87 -9h-111v-186h-100v780h211q134 0 267 -87q125 -81 208 -209zM617 481q-63 84 -155 138q-101 61 -201 61h-111v-394h111q98 0 200 58q98 55 156 137z" />
    <glyph glyph-name="s" unicode="s" horiz-adv-x="748" 
d="M718 166q-56 -86 -145 -135q-93 -51 -199 -51t-199 51q-89 49 -145 135l103 28q94 -114 241 -114q116 0 202 75l-546 459q56 86 146.5 136t197.5 50q106 0 199 -51q89 -49 145 -135l-103 -28q-94 114 -241 114q-117 0 -203 -75z" />
    <glyph glyph-name="t" unicode="t" horiz-adv-x="750" 
d="M700 680h-275v-680h-100v680h-275v100h650v-100z" />
    <glyph glyph-name="u" unicode="u" horiz-adv-x="770" 
d="M720 466q0 -172 -91 -291q-78 -104 -244 -189q-166 85 -244 189q-91 119 -91 291v314h100v-314q0 -141 71 -231q59 -75 164 -135q105 60 164 135q71 90 71 231v314h100v-314z" />
    <glyph glyph-name="v" unicode="v" horiz-adv-x="874" 
d="M844 780l-407 -800l-407 800h112l295 -580l295 580h112z" />
    <glyph glyph-name="w" unicode="w" horiz-adv-x="1136" 
d="M1106 780l-377 -800l-161 339l-161 -339l-377 800h110l267 -566l161 339l161 -339l267 566h110z" />
    <glyph glyph-name="x" unicode="x" horiz-adv-x="804" 
d="M767 780q-54 -150 -137 -247q-66 -77 -142 -134q83 -66 143 -142q81 -104 133 -257h-106q-43 117 -104 194t-152 144q-88 -64 -150.5 -142.5t-105.5 -195.5h-106q52 153 133 257q60 76 143 142q-79 60 -142 134q-83 97 -137 247h106q44 -109 107.5 -183t151.5 -137
q90 64 153 138t106 182h106z" />
    <glyph glyph-name="y" unicode="y" horiz-adv-x="772" 
d="M732 780q-23 -187 -97 -299q-68 -103 -199 -195v-286h-100v286q-131 92 -199 195q-74 112 -97 299h101q20 -153 80 -245q56 -86 165 -163q109 77 165 163q60 92 80 245h101z" />
    <glyph glyph-name="z" unicode="z" horiz-adv-x="815" 
d="M766 780l-531 -680h530v-100h-735l531 680h-496v100h701z" />
    <glyph glyph-name="braceleft" unicode="{" horiz-adv-x="430" 
d="M380 -85h-65v85h-165v340h-100v100h100v340h165v85h65v-185h-130v-580h130v-185z" />
    <glyph glyph-name="bar" unicode="|" horiz-adv-x="200" 
d="M150 -85h-100v950h100v-950z" />
    <glyph glyph-name="braceright" unicode="}" horiz-adv-x="430" 
d="M380 340h-100v-340h-165v-85h-65v185h130v580h-130v185h65v-85h165v-340h100v-100z" />
    <glyph glyph-name="asciitilde" unicode="~" horiz-adv-x="580" 
d="M530 400l-15 -20q-52 -70 -137 -70q-42 0 -84 22l-54 28q-19 10 -38 10q-35 0 -57 -30l-15 -20l-80 60l15 20q52 70 137 70q41 0 84 -22l53 -27q22 -11 39 -11q35 0 57 30l15 20z" />
    <glyph glyph-name="dagger" unicode="&#x2020;" horiz-adv-x="540" 
d="M490 510h-170v-510h-100v510h-170v100h170v170h100v-170h170v-100z" />
    <glyph glyph-name="cent" unicode="&#xa2;" horiz-adv-x="538" 
d="M488 363q-56 -56 -132 -71v-105h-100v105q-89 17 -147.5 88t-58.5 164t58.5 163.5t147.5 87.5v105h100v-105q75 -15 132 -70l-70 -71q-48 46 -112 46q-65 0 -110.5 -45.5t-45.5 -110.5t45.5 -111t110.5 -46q66 0 111 47z" />
    <glyph glyph-name="sterling" unicode="&#xa3;" horiz-adv-x="786" 
d="M736 0h-686v100h456l-224 240h-153v100h59l-138 148q56 97 153.5 154.5t213.5 57.5q192 0 319 -145l-83 -58q-95 103 -236 103q-142 0 -238 -104l146 -156h292v-100h-198l223 -240h94v-100z" />
    <glyph glyph-name="section" unicode="&#xa7;" horiz-adv-x="600" 
d="M550 60q0 -109 -73 -184.5t-177 -75.5t-177 75.5t-73 184.5h100q0 -69 43.5 -114.5t106.5 -45.5q61 0 103.5 42.5t46.5 107.5l-400 146v324q0 109 73 184.5t177 75.5t177 -75.5t73 -184.5h-100q0 69 -43.5 114.5t-106.5 45.5q-60 0 -103 -41.5t-47 -106.5l400 -146v-326z
M450 157v159l-300 110v-160q103 -37 300 -109z" />
    <glyph glyph-name="bullet" unicode="&#x2022;" horiz-adv-x="380" 
d="M330 390q0 -58 -41 -99t-99 -41t-99 41t-41 99t41 99t99 41t99 -41t41 -99z" />
    <glyph glyph-name="paragraph" unicode="&#xb6;" horiz-adv-x="809" 
d="M759 -200h-185v915h-100v-915h-185v65h85v409q-183 0 -324 253q59 114 138 180q88 73 186 73h385v-65h-85v-850h85v-65z" />
    <glyph glyph-name="germandbls" unicode="&#xdf;" horiz-adv-x="848" 
d="M798 226q-228 -226 -488 -226h-110v100h110q188 0 345 129q-70 61 -159 98q-94 38 -186 38h-110v100h110q197 0 307 104q-129 111 -307 111h-160v-680h-100v780h260q246 0 444 -204q-92 -115 -207 -165q138 -63 251 -185z" />
    <glyph glyph-name="acute" unicode="&#xb4;" horiz-adv-x="389" 
d="M339 972l-239 -137l-50 87l238 137z" />
    <glyph glyph-name="dieresis" unicode="&#xa8;" horiz-adv-x="474" 
d="M424 845h-130v130h130v-130zM180 845h-130v130h130v-130z" />
    <glyph glyph-name="AE" unicode="&#xc6;" horiz-adv-x="1258" 
d="M1208 0h-600v135h-332l-102 -135h-124l587 780h571v-100h-500v-240h350v-100h-350v-240h500v-100zM608 235v342l-257 -342h257z" />
    <glyph glyph-name="Oslash" unicode="&#xd8;" horiz-adv-x="920" 
d="M870 390q0 -170 -120 -290t-290 -120q-142 0 -253 87l-72 -73l-71 71l72 72q-86 111 -86 253q0 170 120 290t290 120q143 0 252 -87l73 73l71 -71l-72 -73q86 -110 86 -252zM641 642q-82 58 -181 58q-129 0 -219.5 -90.5t-90.5 -219.5q0 -101 58 -181zM770 390
q0 101 -58 181l-433 -433q82 -58 181 -58q129 0 219.5 90.5t90.5 219.5z" />
    <glyph glyph-name="yen" unicode="&#xa5;" horiz-adv-x="792" 
d="M742 200h-296v-200h-100v200h-296v100h276q-63 46 -105 90h-171v100h91q-69 113 -91 290h101q20 -153 80 -245q56 -86 165 -163q109 77 165 163q60 92 80 245h101q-22 -177 -91 -290h91v-100h-171q-43 -45 -106 -90h277v-100z" />
    <glyph glyph-name="ordfeminine" unicode="&#xaa;" horiz-adv-x="548" 
d="M498 360h-112l-28 54h-169l-27 -54h-112l224 440zM498 199h-448v100h448v-100zM307 514l-33 66l-34 -66h67z" />
    <glyph glyph-name="ordmasculine" unicode="&#xba;" horiz-adv-x="551" 
d="M501 564q0 -93 -66 -159t-160 -66q-93 0 -159 66t-66 159q0 94 66 160t159 66q94 0 160 -66t66 -160zM501 199h-451v100h451v-100zM401 564q0 52 -37 89t-89 37t-88.5 -37t-36.5 -89t36.5 -88.5t88.5 -36.5t89 36.5t37 88.5z" />
    <glyph glyph-name="ae" unicode="&#xe6;" horiz-adv-x="1258" 
d="M1208 0h-600v135h-332l-102 -135h-124l587 780h571v-100h-500v-240h350v-100h-350v-240h500v-100zM608 235v342l-257 -342h257z" />
    <glyph glyph-name="oslash" unicode="&#xf8;" horiz-adv-x="920" 
d="M870 390q0 -170 -120 -290t-290 -120q-142 0 -253 87l-72 -73l-71 71l72 72q-86 111 -86 253q0 170 120 290t290 120q143 0 252 -87l73 73l71 -71l-72 -73q86 -110 86 -252zM641 642q-82 58 -181 58q-129 0 -219.5 -90.5t-90.5 -219.5q0 -101 58 -181zM770 390
q0 101 -58 181l-433 -433q82 -58 181 -58q129 0 219.5 90.5t90.5 219.5z" />
    <glyph glyph-name="questiondown" unicode="&#xbf;" horiz-adv-x="794" 
d="M476 680h-100v100h100v-100zM744 125q-127 -145 -318 -145q-121 0 -222 63t-154 167q48 93 134 153.5t192 73.5v193h100v-290h-50q-162 0 -259 -130q97 -130 259 -130q141 0 236 103z" />
    <glyph glyph-name="exclamdown" unicode="&#xa1;" horiz-adv-x="200" 
d="M150 680h-100v100h100v-100zM150 0h-100v630h100v-630z" />
    <glyph glyph-name="florin" unicode="&#x192;" horiz-adv-x="500" 
d="M450 340h-150v-335q0 -85 -60 -145t-145 -60h-45v100h45q44 0 74.5 30.5t30.5 74.5v335h-150v100h150v135q0 85 60 145t145 60h45v-100h-45q-44 0 -74.5 -30.5t-30.5 -74.5v-135h150v-100z" />
    <glyph glyph-name="guillemotleft" unicode="&#xab;" horiz-adv-x="680" 
d="M630 180l-270 155v116l270 155v-115l-170 -98l170 -98v-115zM320 180l-270 155v116l270 155v-115l-170 -98l170 -98v-115z" />
    <glyph glyph-name="guillemotright" unicode="&#xbb;" horiz-adv-x="680" 
d="M630 335l-270 -155v115l170 98l-170 98v115l270 -155v-116zM320 335l-270 -155v115l170 98l-170 98v115l270 -155v-116z" />
    <glyph glyph-name="ellipsis" unicode="&#x2026;" horiz-adv-x="980" 
d="M930 0h-160v160h160v-160zM570 0h-160v160h160v-160zM210 0h-160v160h160v-160z" />
    <glyph glyph-name="OE" unicode="&#x152;" horiz-adv-x="1420" 
d="M1370 0h-600v121q-123 -141 -310 -141q-170 0 -290 120t-120 290t120 290t290 120q187 0 310 -141v121h600v-100h-500v-240h350v-100h-350v-240h500v-100zM770 390q0 129 -90.5 219.5t-219.5 90.5t-219.5 -90.5t-90.5 -219.5t90.5 -219.5t219.5 -90.5t219.5 90.5
t90.5 219.5z" />
    <glyph glyph-name="oe" unicode="&#x153;" horiz-adv-x="1420" 
d="M1370 0h-600v121q-123 -141 -310 -141q-170 0 -290 120t-120 290t120 290t290 120q187 0 310 -141v121h600v-100h-500v-240h350v-100h-350v-240h500v-100zM770 390q0 129 -90.5 219.5t-219.5 90.5t-219.5 -90.5t-90.5 -219.5t90.5 -219.5t219.5 -90.5t219.5 90.5
t90.5 219.5z" />
    <glyph glyph-name="endash" unicode="&#x2013;" horiz-adv-x="770" 
d="M720 340h-670v100h670v-100z" />
    <glyph glyph-name="emdash" unicode="&#x2014;" horiz-adv-x="890" 
d="M840 340h-790v100h790v-100z" />
    <glyph glyph-name="quotedblleft" unicode="&#x201c;" horiz-adv-x="470" 
d="M420 535h-160v245h65v-85h95v-160zM210 535h-160v245h65v-85h95v-160z" />
    <glyph glyph-name="quotedblright" unicode="&#x201d;" horiz-adv-x="470" 
d="M420 535h-65v85h-95v160h160v-245zM210 535h-65v85h-95v160h160v-245z" />
    <glyph glyph-name="quoteleft" unicode="&#x2018;" horiz-adv-x="260" 
d="M210 535h-160v245h65v-85h95v-160z" />
    <glyph glyph-name="quoteright" unicode="&#x2019;" horiz-adv-x="260" 
d="M210 535h-65v85h-95v160h160v-245z" />
    <glyph glyph-name="fraction" unicode="&#x2044;" horiz-adv-x="575" 
d="M525 780l-372 -800l-103 20l373 800z" />
    <glyph glyph-name="currency" unicode="&#xa4;" horiz-adv-x="662" 
d="M612 180l-70 -70l-74 74q-61 -41 -137 -41q-74 0 -137 41l-74 -74l-70 70l74 74q-40 64 -40 136q0 76 41 137l-75 75l70 70l74 -75q63 42 137 42q76 0 137 -41l74 74l70 -70l-74 -74q42 -63 42 -138t-42 -137zM480 390q0 62 -43.5 105.5t-105.5 43.5q-61 0 -104 -43.5
t-43 -105.5q0 -61 43 -104t104 -43q62 0 105.5 43t43.5 104z" />
    <glyph glyph-name="guilsinglleft" unicode="&#x2039;" horiz-adv-x="370" 
d="M320 180l-270 155v116l270 155v-115l-170 -98l170 -98v-115z" />
    <glyph glyph-name="guilsinglright" unicode="&#x203a;" horiz-adv-x="370" 
d="M320 335l-270 -155v115l170 98l-170 98v115l270 -155v-116z" />
    <glyph glyph-name="fi" unicode="&#xf001;" horiz-adv-x="950" 
d="M900 0h-100v780h100v-780zM700 680h-550v-240h400v-100h-400v-340h-100v780h650v-100z" />
    <glyph glyph-name="fl" unicode="&#xf002;" horiz-adv-x="1500" 
d="M1450 0h-650v780h100v-680h550v-100zM700 680h-550v-240h400v-100h-400v-340h-100v780h650v-100z" />
    <glyph glyph-name="daggerdbl" unicode="&#x2021;" horiz-adv-x="540" 
d="M490 170h-170v-170h-100v170h-170v100h170v240h-170v100h170v170h100v-170h170v-100h-170v-240h170v-100z" />
    <glyph glyph-name="periodcentered" unicode="&#xb7;" horiz-adv-x="260" 
d="M210 280h-160v160h160v-160z" />
    <glyph glyph-name="periodcentered" unicode="&#x2219;" horiz-adv-x="260" 
d="M210 280h-160v160h160v-160z" />
    <glyph glyph-name="quotesinglbase" unicode="&#x201a;" horiz-adv-x="260" 
d="M210 -85h-65v85h-95v160h160v-245z" />
    <glyph glyph-name="quotedblbase" unicode="&#x201e;" horiz-adv-x="470" 
d="M420 -85h-65v85h-95v160h160v-245zM210 -85h-65v85h-95v160h160v-245z" />
    <glyph glyph-name="perthousand" unicode="&#x2030;" horiz-adv-x="1586" 
d="M1531 237q0 -112 -67 -183q-61 -65 -143 -65t-143 65q-67 71 -67 183q0 111 67 182q61 65 143 65t143 -65q67 -71 67 -182zM1045 237q0 -112 -67 -183q-61 -65 -143 -65t-143 65q-67 71 -67 183q0 111 67 182q61 65 143 65t143 -65q67 -71 67 -182zM811 858l-409 -880
l-114 22l411 880zM475 622q0 -112 -67 -183q-61 -65 -143 -65t-143 65q-67 71 -67 183q0 111 67 182q61 65 143 65t143 -65q67 -71 67 -182zM1421 237q0 60 -29.5 98.5t-70.5 38.5t-70.5 -38.5t-29.5 -98.5q0 -61 29.5 -99.5t70.5 -38.5t70.5 38.5t29.5 99.5zM935 237
q0 60 -29.5 98.5t-70.5 38.5t-70.5 -38.5t-29.5 -98.5q0 -61 29.5 -99.5t70.5 -38.5t70.5 38.5t29.5 99.5zM365 622q0 60 -29.5 98.5t-70.5 38.5t-70.5 -38.5t-29.5 -98.5q0 -61 29.5 -99.5t70.5 -38.5t70.5 38.5t29.5 99.5z" />
    <glyph glyph-name="dotlessi" unicode="&#x131;" horiz-adv-x="200" 
d="M150 0h-100v780h100v-780z" />
    <glyph glyph-name="circumflex" unicode="&#x2c6;" horiz-adv-x="516" 
d="M466 845h-131l-77 91l-77 -91h-131l142 170h132z" />
    <glyph glyph-name="tilde" unicode="&#x2dc;" horiz-adv-x="538" 
d="M488 956l-19 -35q-41 -76 -126 -76q-50 0 -85 26l-38 28q-8 6 -25 6q-25 0 -38 -24l-19 -35l-88 48l19 35q41 76 126 76q50 0 85 -26l38 -28q8 -6 25 -6q25 0 38 24l19 35z" />
    <glyph glyph-name="macron" unicode="&#xaf;" horiz-adv-x="466" 
d="M416 845h-366v100h366v-100z" />
    <glyph glyph-name="macron" unicode="&#x2c9;" horiz-adv-x="466" 
d="M416 845h-366v100h366v-100z" />
    <glyph glyph-name="breve" unicode="&#x2d8;" horiz-adv-x="466" 
d="M415 984q-14 -63 -64 -106t-118 -43t-120 44q-48 42 -62 105l98 22q6 -30 29 -50.5t55 -20.5t55 20.5t29 50.5z" />
    <glyph glyph-name="dotaccent" unicode="&#x2d9;" horiz-adv-x="260" 
d="M210 845h-160v160h160v-160z" />
    <glyph glyph-name="ring" unicode="&#x2da;" horiz-adv-x="361" 
d="M311 955q0 -53 -38.5 -91.5t-91.5 -38.5t-91.5 38.5t-38.5 91.5t38.5 91.5t91.5 38.5t91.5 -38.5t38.5 -91.5zM246 955q0 27 -19 46t-46 19t-46 -19t-19 -46t19 -46t46 -19t46 19t19 46z" />
    <glyph glyph-name="cedilla" unicode="&#xb8;" horiz-adv-x="419" 
d="M369 -161q-24 -45 -74 -73q-45 -26 -90 -26q-43 0 -90 24.5t-65 58.5l58 30q11 -21 40.5 -34.5t56.5 -13.5q50 0 84 32q-38 33 -116 33v130h65v-69q86 -19 131 -92z" />
    <glyph glyph-name="hungarumlaut" unicode="&#x2dd;" horiz-adv-x="633" 
d="M578 1077l-192 -158l-70 84l189 159zM317 1077l-192 -158l-70 84l189 159z" />
    <glyph glyph-name="ogonek" unicode="&#x2db;" horiz-adv-x="421" 
d="M371 -177q-18 -34 -65 -58.5t-90 -24.5q-45 0 -91 26q-49 29 -75 76l134 158h86l-138 -163q34 -32 84 -32q27 0 56.5 13.5t40.5 34.5z" />
    <glyph glyph-name="caron" unicode="&#x2c7;" horiz-adv-x="516" 
d="M466 1015l-142 -170h-132l-142 170h131l77 -91l77 91h131z" />
    <glyph glyph-name="Lslash" unicode="&#x141;" horiz-adv-x="850" 
d="M800 0h-650v274l-100 -57v116l100 57v390h100v-332l200 115v-116l-200 -115v-232h550v-100z" />
    <glyph glyph-name="lslash" unicode="&#x142;" horiz-adv-x="850" 
d="M800 0h-650v274l-100 -57v116l100 57v390h100v-332l200 115v-116l-200 -115v-232h550v-100z" />
    <glyph glyph-name="Eth" unicode="&#xd0;" horiz-adv-x="907" 
d="M857 390q-80 -160 -240 -275t-310 -115h-157v340h-100v100h100v340h157q152 0 313 -116q157 -113 237 -274zM744 390q-65 117 -188 202q-129 88 -249 88h-57v-240h100v-100h-100v-240h57q118 0 247 88q124 85 190 202z" />
    <glyph glyph-name="eth" unicode="&#xf0;" horiz-adv-x="800" 
d="M763 198q-52 -102 -148.5 -160t-213.5 -58t-213.5 58t-147.5 160q51 102 147.5 160.5t213.5 58.5q76 0 144 -25l-73 134h-206v100h152l-84 154h113l84 -154h199v-100h-145zM646 198q-89 119 -245 119q-155 0 -244 -119q88 -118 244 -118q155 0 245 118z" />
    <glyph glyph-name="Scaron" unicode="&#x160;" horiz-adv-x="748" 
d="M718 166q-56 -86 -145 -135q-93 -51 -199 -51t-199 51q-89 49 -145 135l103 28q94 -114 241 -114q116 0 202 75l-546 459q56 86 146.5 136t197.5 50q106 0 199 -51q89 -49 145 -135l-103 -28q-94 114 -241 114q-117 0 -203 -75zM581 1015l-142 -170h-132l-142 170h131
l77 -91l77 91h131z" />
    <glyph glyph-name="scaron" unicode="&#x161;" horiz-adv-x="748" 
d="M718 166q-56 -86 -145 -135q-93 -51 -199 -51t-199 51q-89 49 -145 135l103 28q94 -114 241 -114q116 0 202 75l-546 459q56 86 146.5 136t197.5 50q106 0 199 -51q89 -49 145 -135l-103 -28q-94 114 -241 114q-117 0 -203 -75zM581 1015l-142 -170h-132l-142 170h131
l77 -91l77 91h131z" />
    <glyph glyph-name="Yacute" unicode="&#xdd;" horiz-adv-x="772" 
d="M732 780q-23 -187 -97 -299q-68 -103 -199 -195v-286h-100v286q-131 92 -199 195q-74 112 -97 299h101q20 -153 80 -245q56 -86 165 -163q109 77 165 163q60 92 80 245h101zM530 972l-239 -137l-50 87l238 137z" />
    <glyph glyph-name="yacute" unicode="&#xfd;" horiz-adv-x="772" 
d="M732 780q-23 -187 -97 -299q-68 -103 -199 -195v-286h-100v286q-131 92 -199 195q-74 112 -97 299h101q20 -153 80 -245q56 -86 165 -163q109 77 165 163q60 92 80 245h101zM530 972l-239 -137l-50 87l238 137z" />
    <glyph glyph-name="Thorn" unicode="&#xde;" horiz-adv-x="786" 
d="M736 390q-73 -125 -208 -197q-127 -68 -267 -68h-111v-125h-100v780h100v-121h111q139 0 267 -73t208 -196zM617 390q-58 78 -154.5 123.5t-201.5 45.5h-111v-334h111q105 0 200 43q101 45 156 122z" />
    <glyph glyph-name="thorn" unicode="&#xfe;" horiz-adv-x="786" 
d="M736 390q-73 -125 -208 -197q-127 -68 -267 -68h-111v-125h-100v780h100v-121h111q139 0 267 -73t208 -196zM617 390q-58 78 -154.5 123.5t-201.5 45.5h-111v-334h111q105 0 200 43q101 45 156 122z" />
    <glyph glyph-name="Zcaron" unicode="&#x17d;" horiz-adv-x="815" 
d="M766 780l-531 -680h530v-100h-735l531 680h-496v100h701zM619 1015l-142 -170h-132l-142 170h131l77 -91l77 91h131z" />
    <glyph glyph-name="zcaron" unicode="&#x17e;" horiz-adv-x="815" 
d="M766 780l-531 -680h530v-100h-735l531 680h-496v100h701zM619 1015l-142 -170h-132l-142 170h131l77 -91l77 91h131z" />
    <glyph glyph-name="onehalf" unicode="&#xbd;" horiz-adv-x="925" 
d="M875 0h-410l282 318q-44 27 -84 27q-63 0 -111 -56l-87 55q86 100 198 100q133 0 212 -130l-191 -215h191v-99zM597 780l-372 -800l-103 20l373 800zM230 340h-100v375h-80v65h180v-440z" />
    <glyph glyph-name="onequarter" unicode="&#xbc;" horiz-adv-x="840" 
d="M790 75h-75v-75h-100v75h-275q123 267 375 385v-285h75v-100zM597 780l-372 -800l-103 20l373 800zM230 340h-100v375h-80v65h180v-440zM615 175v110q-61 -48 -106 -110h106z" />
    <glyph glyph-name="onesuperior" unicode="&#xb9;" horiz-adv-x="280" 
d="M230 340h-100v375h-80v65h180v-440z" />
    <glyph glyph-name="threequarters" unicode="&#xbe;" horiz-adv-x="1018" 
d="M968 75h-75v-75h-100v75h-275q123 267 375 385v-285h75v-100zM775 780l-372 -800l-103 20l373 800zM462 470q-72 -140 -216 -140q-105 0 -195 99l83 58q53 -57 112 -57q55 0 97 40q-40 40 -122 40v100q80 0 122 40q-40 40 -97 40q-58 0 -112 -55l-84 56q92 99 196 99
q144 0 216 -139q-28 -56 -70 -91q41 -30 70 -90zM793 175v110q-61 -48 -106 -110h106z" />
    <glyph glyph-name="threesuperior" unicode="&#xb3;" horiz-adv-x="512" 
d="M462 470q-72 -140 -216 -140q-105 0 -195 99l83 58q53 -57 112 -57q55 0 97 40q-40 40 -122 40v100q80 0 122 40q-40 40 -97 40q-58 0 -112 -55l-84 56q92 99 196 99q144 0 216 -139q-28 -56 -70 -91q41 -30 70 -90z" />
    <glyph glyph-name="twosuperior" unicode="&#xb2;" horiz-adv-x="505" 
d="M455 347h-410l282 318q-44 27 -84 27q-63 0 -111 -56l-87 55q86 100 198 100q133 0 212 -130l-191 -215h191v-99z" />
    <glyph glyph-name="brokenbar" unicode="&#xa6;" horiz-adv-x="200" 
d="M150 460h-100v405h100v-405zM150 -85h-100v405h100v-405z" />
    <glyph glyph-name="minus" unicode="&#xad;" horiz-adv-x="540" 
d="M490 340h-440v100h440v-100z" />
    <glyph glyph-name="minus" unicode="&#x2212;" horiz-adv-x="540" 
d="M490 340h-440v100h440v-100z" />
    <glyph glyph-name="multiply" unicode="&#xd7;" horiz-adv-x="540" 
d="M490 241l-71 -71l-149 149l-149 -149l-71 71l149 149l-149 149l71 71l149 -149l149 149l71 -71l-149 -149z" />
    <glyph glyph-name="Adieresis" unicode="&#xc4;" horiz-adv-x="874" 
d="M844 0h-112l-69 135h-452l-69 -135h-112l407 800zM612 235l-175 345l-176 -345h351zM624 845h-130v130h130v-130zM380 845h-130v130h130v-130z" />
    <glyph glyph-name="Aring" unicode="&#xc5;" horiz-adv-x="874" 
d="M844 0h-112l-69 135h-452l-69 -135h-112l407 800zM612 235l-175 345l-176 -345h351zM567 955q0 -53 -38.5 -91.5t-91.5 -38.5t-91.5 38.5t-38.5 91.5t38.5 91.5t91.5 38.5t91.5 -38.5t38.5 -91.5zM502 955q0 27 -19 46t-46 19t-46 -19t-19 -46t19 -46t46 -19t46 19t19 46
z" />
    <glyph glyph-name="Ccedilla" unicode="&#xc7;" horiz-adv-x="777" 
d="M747 107q-105 -109 -254 -125v-41q86 -19 131 -92q-24 -45 -74 -73q-45 -26 -90 -26q-43 0 -90 24.5t-65 58.5l58 30q11 -21 40.5 -34.5t56.5 -13.5q50 0 84 32q-38 33 -116 33v101q-163 8 -275.5 126t-112.5 283q0 170 120 290t290 120q175 0 297 -127l-84 -58
q-90 85 -213 85q-129 0 -219.5 -90.5t-90.5 -219.5t90.5 -219.5t219.5 -90.5q123 0 213 85z" />
    <glyph glyph-name="Eacute" unicode="&#xc9;" horiz-adv-x="750" 
d="M700 0h-650v780h650v-100h-550v-240h400v-100h-400v-240h550v-100zM529 972l-239 -137l-50 87l238 137z" />
    <glyph glyph-name="Ntilde" unicode="&#xd1;" horiz-adv-x="770" 
d="M720 -21l-570 577v-556h-100v799l570 -575v556h100v-801zM605 956l-19 -35q-41 -76 -126 -76q-50 0 -85 26l-38 28q-8 6 -25 6q-25 0 -38 -24l-19 -35l-88 48l19 35q41 76 126 76q50 0 85 -26l38 -28q8 -6 25 -6q25 0 38 24l19 35z" />
    <glyph glyph-name="Odieresis" unicode="&#xd6;" 
d="M860 390q0 -170 -120 -290t-290 -120t-290 120t-120 290t120 290t290 120t290 -120t120 -290zM760 390q0 129 -90.5 219.5t-219.5 90.5t-219.5 -90.5t-90.5 -219.5t90.5 -219.5t219.5 -90.5t219.5 90.5t90.5 219.5zM639 845h-130v130h130v-130zM395 845h-130v130h130
v-130z" />
    <glyph glyph-name="Udieresis" unicode="&#xdc;" horiz-adv-x="770" 
d="M720 466q0 -172 -91 -291q-78 -104 -244 -189q-166 85 -244 189q-91 119 -91 291v314h100v-314q0 -141 71 -231q59 -75 164 -135q105 60 164 135q71 90 71 231v314h100v-314zM573 845h-130v130h130v-130zM329 845h-130v130h130v-130z" />
    <glyph glyph-name="aacute" unicode="&#xe1;" horiz-adv-x="874" 
d="M844 0h-112l-69 135h-452l-69 -135h-112l407 800zM612 235l-175 345l-176 -345h351zM614 972l-239 -137l-50 87l238 137z" />
    <glyph glyph-name="agrave" unicode="&#xe0;" horiz-adv-x="874" 
d="M844 0h-112l-69 135h-452l-69 -135h-112l407 800zM612 235l-175 345l-176 -345h351zM547 922l-50 -87l-239 137l51 87z" />
    <glyph glyph-name="acircumflex" unicode="&#xe2;" horiz-adv-x="874" 
d="M844 0h-112l-69 135h-452l-69 -135h-112l407 800zM612 235l-175 345l-176 -345h351zM644 845h-131l-77 91l-77 -91h-131l142 170h132z" />
    <glyph glyph-name="adieresis" unicode="&#xe4;" horiz-adv-x="874" 
d="M844 0h-112l-69 135h-452l-69 -135h-112l407 800zM612 235l-175 345l-176 -345h351zM624 845h-130v130h130v-130zM380 845h-130v130h130v-130z" />
    <glyph glyph-name="atilde" unicode="&#xe3;" horiz-adv-x="874" 
d="M844 0h-112l-69 135h-452l-69 -135h-112l407 800zM612 235l-175 345l-176 -345h351zM658 956l-19 -35q-41 -76 -126 -76q-50 0 -85 26l-38 28q-8 6 -25 6q-25 0 -38 -24l-19 -35l-88 48l19 35q41 76 126 76q50 0 85 -26l38 -28q8 -6 25 -6q25 0 38 24l19 35z" />
    <glyph glyph-name="aring" unicode="&#xe5;" horiz-adv-x="874" 
d="M844 0h-112l-69 135h-452l-69 -135h-112l407 800zM612 235l-175 345l-176 -345h351zM567 955q0 -53 -38.5 -91.5t-91.5 -38.5t-91.5 38.5t-38.5 91.5t38.5 91.5t91.5 38.5t91.5 -38.5t38.5 -91.5zM502 955q0 27 -19 46t-46 19t-46 -19t-19 -46t19 -46t46 -19t46 19t19 46
z" />
    <glyph glyph-name="ccedilla" unicode="&#xe7;" horiz-adv-x="777" 
d="M747 107q-105 -109 -254 -125v-41q86 -19 131 -92q-24 -45 -74 -73q-45 -26 -90 -26q-43 0 -90 24.5t-65 58.5l58 30q11 -21 40.5 -34.5t56.5 -13.5q50 0 84 32q-38 33 -116 33v101q-163 8 -275.5 126t-112.5 283q0 170 120 290t290 120q175 0 297 -127l-84 -58
q-90 85 -213 85q-129 0 -219.5 -90.5t-90.5 -219.5t90.5 -219.5t219.5 -90.5q123 0 213 85z" />
    <glyph glyph-name="eacute" unicode="&#xe9;" horiz-adv-x="750" 
d="M700 0h-650v780h650v-100h-550v-240h400v-100h-400v-240h550v-100zM529 972l-239 -137l-50 87l238 137z" />
    <glyph glyph-name="egrave" unicode="&#xe8;" horiz-adv-x="750" 
d="M700 0h-650v780h650v-100h-550v-240h400v-100h-400v-240h550v-100zM522 922l-50 -87l-239 137l51 87z" />
    <glyph glyph-name="ecircumflex" unicode="&#xea;" horiz-adv-x="750" 
d="M700 0h-650v780h650v-100h-550v-240h400v-100h-400v-240h550v-100zM583 845h-131l-77 91l-77 -91h-131l142 170h132z" />
    <glyph glyph-name="edieresis" unicode="&#xeb;" horiz-adv-x="750" 
d="M700 0h-650v780h650v-100h-550v-240h400v-100h-400v-240h550v-100zM566 845h-130v130h130v-130zM322 845h-130v130h130v-130z" />
    <glyph glyph-name="iacute" unicode="&#xed;" horiz-adv-x="200" 
d="M150 0h-100v780h100v-780zM269 972l-239 -137l-50 87l238 137z" />
    <glyph glyph-name="igrave" unicode="&#xec;" horiz-adv-x="200" 
d="M150 0h-100v780h100v-780zM225 922l-50 -87l-239 137l51 87z" />
    <glyph glyph-name="icircumflex" unicode="&#xee;" horiz-adv-x="200" 
d="M150 0h-100v780h100v-780zM309 845h-131l-77 91l-77 -91h-131l142 170h132z" />
    <glyph glyph-name="idieresis" unicode="&#xef;" horiz-adv-x="200" 
d="M150 0h-100v780h100v-780zM287 845h-130v130h130v-130zM43 845h-130v130h130v-130z" />
    <glyph glyph-name="ntilde" unicode="&#xf1;" horiz-adv-x="770" 
d="M720 -21l-570 577v-556h-100v799l570 -575v556h100v-801zM605 956l-19 -35q-41 -76 -126 -76q-50 0 -85 26l-38 28q-8 6 -25 6q-25 0 -38 -24l-19 -35l-88 48l19 35q41 76 126 76q50 0 85 -26l38 -28q8 -6 25 -6q25 0 38 24l19 35z" />
    <glyph glyph-name="oacute" unicode="&#xf3;" 
d="M860 390q0 -170 -120 -290t-290 -120t-290 120t-120 290t120 290t290 120t290 -120t120 -290zM760 390q0 129 -90.5 219.5t-219.5 90.5t-219.5 -90.5t-90.5 -219.5t90.5 -219.5t219.5 -90.5t219.5 90.5t90.5 219.5zM595 972l-239 -137l-50 87l238 137z" />
    <glyph glyph-name="ograve" unicode="&#xf2;" 
d="M860 390q0 -170 -120 -290t-290 -120t-290 120t-120 290t120 290t290 120t290 -120t120 -290zM760 390q0 129 -90.5 219.5t-219.5 90.5t-219.5 -90.5t-90.5 -219.5t90.5 -219.5t219.5 -90.5t219.5 90.5t90.5 219.5zM594 922l-50 -87l-239 137l51 87z" />
    <glyph glyph-name="ocircumflex" unicode="&#xf4;" 
d="M860 390q0 -170 -120 -290t-290 -120t-290 120t-120 290t120 290t290 120t290 -120t120 -290zM760 390q0 129 -90.5 219.5t-219.5 90.5t-219.5 -90.5t-90.5 -219.5t90.5 -219.5t219.5 -90.5t219.5 90.5t90.5 219.5zM660 845h-131l-77 91l-77 -91h-131l142 170h132z" />
    <glyph glyph-name="odieresis" unicode="&#xf6;" 
d="M860 390q0 -170 -120 -290t-290 -120t-290 120t-120 290t120 290t290 120t290 -120t120 -290zM760 390q0 129 -90.5 219.5t-219.5 90.5t-219.5 -90.5t-90.5 -219.5t90.5 -219.5t219.5 -90.5t219.5 90.5t90.5 219.5zM639 845h-130v130h130v-130zM395 845h-130v130h130
v-130z" />
    <glyph glyph-name="otilde" unicode="&#xf5;" 
d="M860 390q0 -170 -120 -290t-290 -120t-290 120t-120 290t120 290t290 120t290 -120t120 -290zM760 390q0 129 -90.5 219.5t-219.5 90.5t-219.5 -90.5t-90.5 -219.5t90.5 -219.5t219.5 -90.5t219.5 90.5t90.5 219.5zM676 956l-19 -35q-41 -76 -126 -76q-50 0 -85 26
l-38 28q-8 6 -25 6q-25 0 -38 -24l-19 -35l-88 48l19 35q41 76 126 76q50 0 85 -26l38 -28q8 -6 25 -6q25 0 38 24l19 35z" />
    <glyph glyph-name="uacute" unicode="&#xfa;" horiz-adv-x="770" 
d="M720 466q0 -172 -91 -291q-78 -104 -244 -189q-166 85 -244 189q-91 119 -91 291v314h100v-314q0 -141 71 -231q59 -75 164 -135q105 60 164 135q71 90 71 231v314h100v-314zM533 972l-239 -137l-50 87l238 137z" />
    <glyph glyph-name="ugrave" unicode="&#xf9;" horiz-adv-x="770" 
d="M720 466q0 -172 -91 -291q-78 -104 -244 -189q-166 85 -244 189q-91 119 -91 291v314h100v-314q0 -141 71 -231q59 -75 164 -135q105 60 164 135q71 90 71 231v314h100v-314zM526 922l-50 -87l-239 137l51 87z" />
    <glyph glyph-name="ucircumflex" unicode="&#xfb;" horiz-adv-x="770" 
d="M720 466q0 -172 -91 -291q-78 -104 -244 -189q-166 85 -244 189q-91 119 -91 291v314h100v-314q0 -141 71 -231q59 -75 164 -135q105 60 164 135q71 90 71 231v314h100v-314zM593 845h-131l-77 91l-77 -91h-131l142 170h132z" />
    <glyph glyph-name="udieresis" unicode="&#xfc;" horiz-adv-x="770" 
d="M720 466q0 -172 -91 -291q-78 -104 -244 -189q-166 85 -244 189q-91 119 -91 291v314h100v-314q0 -141 71 -231q59 -75 164 -135q105 60 164 135q71 90 71 231v314h100v-314zM573 845h-130v130h130v-130zM329 845h-130v130h130v-130z" />
    <glyph glyph-name="degree" unicode="&#xb0;" horiz-adv-x="510" 
d="M460 585q0 -85 -60 -145t-145 -60t-145 60t-60 145t60 145t145 60q86 0 145.5 -60t59.5 -145zM360 585q0 44 -31 74.5t-74 30.5q-44 0 -74.5 -30.5t-30.5 -74.5t30.5 -74.5t74.5 -30.5t74.5 30.5t30.5 74.5z" />
    <glyph glyph-name="registered" unicode="&#xae;" 
d="M850 391q0 -166 -118 -283.5t-283 -117.5q-166 0 -283 117.5t-117 283.5q0 165 117 282t283 117q165 0 283 -117t118 -282zM780 391q0 137 -97 233t-234 96t-233 -96t-96 -233t96 -234t233 -97t234 97t97 234zM642 160h-79q-16 34 -16 101q0 49 -22 68t-68 19h-101v-188
h-70v461h173q169 0 169 -135q0 -76 -50 -111q38 -36 38 -114q0 -54 26 -101zM558 486q0 66 -94 66h-108v-134h108q94 0 94 68z" />
    <glyph glyph-name="copyright" unicode="&#xa9;" 
d="M850 391q0 -166 -118 -283.5t-283 -117.5q-166 0 -283 117.5t-117 283.5q0 165 117 282t283 117q165 0 283 -117t118 -282zM780 391q0 137 -97 233t-234 96t-233 -96t-96 -233t96 -234t233 -97t234 97t97 234zM650 318q0 -63 -50 -112q-57 -57 -151 -57q-96 0 -156 70
t-60 172q0 100 60.5 170t155.5 70q93 0 151 -57q50 -49 50 -111h-74q0 37 -31 66q-35 34 -96 34q-72 0 -112 -60q-33 -49 -33 -112t33 -113q41 -61 112 -61q60 0 96 35q31 29 31 66h74z" />
    <glyph glyph-name="trademark" unicode="&#x2122;" horiz-adv-x="826" 
d="M776 380h-67v262l-98 -261h-70l-97 261v-262h-67v400h87l112 -297l112 297h88v-400zM347 716h-115v-336h-67v336h-115v64h297v-64z" />
    <glyph glyph-name="notequal" unicode="&#x2260;" horiz-adv-x="540" 
d="M490 240h-221l-48 -130l-94 34l35 96h-112v100h149l36 100h-185v100h221l48 130l94 -34l-35 -96h112v-100h-149l-36 -100h185v-100z" />
    <glyph glyph-name="infinity" unicode="&#x221e;" horiz-adv-x="872" 
d="M822 390q0 -73 -52.5 -126.5t-122.5 -53.5q-103 0 -211 110q-110 -110 -211 -110q-70 0 -122.5 53.5t-52.5 126.5q0 71 53 123t123 52q103 0 210 -105q105 105 210 105q70 0 123 -52t53 -123zM722 390q0 31 -23 53t-53 22q-67 0 -140 -75q80 -80 141 -80q31 0 53 24
t22 56zM366 390q-75 75 -140 75q-30 0 -53 -22t-23 -53q0 -32 22 -56t53 -24q59 0 141 80z" />
    <glyph glyph-name="plusminus" unicode="&#xb1;" horiz-adv-x="540" 
d="M490 415h-170v-170h-100v170h-170v100h170v170h100v-170h170v-100zM490 95h-440v100h440v-100z" />
    <glyph glyph-name="lessequal" unicode="&#x2264;" horiz-adv-x="540" 
d="M490 253l-440 160v106l440 160v-106l-295 -107l295 -107v-106zM490 95h-440v100h440v-100z" />
    <glyph glyph-name="greaterequal" unicode="&#x2265;" horiz-adv-x="540" 
d="M490 413l-440 -160v106l295 107l-295 107v106l440 -160v-106zM490 95h-440v100h440v-100z" />
    <glyph glyph-name="mu" unicode="&#xb5;" horiz-adv-x="754" 
d="M704 -10q-123 63 -182 140q-11 14 -18 25q-42 -69 -130 -127q-33 -22 -73 -42q-98 50 -151 105v-291h-100v700h100v-153q0 -98 48 -159q37 -47 103 -88q79 50 113 100q39 57 39 147v153h100v-149q0 -98 48 -159q37 -47 103 -88v-114z" />
    <glyph glyph-name="mu" unicode="&#x3bc;" horiz-adv-x="754" 
d="M704 -10q-123 63 -182 140q-11 14 -18 25q-42 -69 -130 -127q-33 -22 -73 -42q-98 50 -151 105v-291h-100v700h100v-153q0 -98 48 -159q37 -47 103 -88q79 50 113 100q39 57 39 147v153h100v-149q0 -98 48 -159q37 -47 103 -88v-114z" />
    <glyph glyph-name="partialdiff" unicode="&#x2202;" horiz-adv-x="882" 
d="M839 218q-57 -112 -163 -176t-235 -64q-128 0 -234.5 64t-162.5 176q56 113 162.5 177t234.5 64q83 0 159 -28l-233 427h125zM711 218q-99 131 -270 131t-268 -131q96 -130 268 -130q171 0 270 130z" />
    <glyph glyph-name="summation" unicode="&#x2211;" horiz-adv-x="805" 
d="M755 0h-705l327 390l-327 390h705v-100h-490l244 -290l-244 -290h490v-100z" />
    <glyph glyph-name="product" unicode="&#x220f;" horiz-adv-x="810" 
d="M760 680h-100v-680h-100v680h-310v-680h-100v680h-100v100h710v-100z" />
    <glyph glyph-name="pi" unicode="&#x3c0;" horiz-adv-x="600" 
d="M550 435h-100v-435h-100v435h-100v-435h-100v435h-100v65h500v-65z" />
    <glyph glyph-name="integral" unicode="&#x222b;" horiz-adv-x="297" 
d="M250 1q0 -73 -47.5 -130.5t-121.5 -70.5l-18 99q38 7 63 35.5t25 66.5q0 8 -2 19l-96 542q-3 17 -3 36q0 74 47.5 131.5t121.5 70.5l18 -99q-38 -7 -62.5 -36t-24.5 -67q0 -12 1 -18l96 -542q3 -17 3 -37z" />
    <glyph glyph-name="Omega" unicode="&#x3a9;" horiz-adv-x="800" 
d="M750 0h-300v204q86 17 143 86t57 159q0 104 -73.5 177.5t-176.5 73.5t-176.5 -73.5t-73.5 -177.5q0 -90 57 -159t143 -86v-204h-300v100h200v33q-91 43 -144 125q-56 85 -56 191q0 145 102.5 248t247.5 103t247.5 -103t102.5 -248q0 -106 -54.5 -189.5t-145.5 -126.5v-33
h200v-100z" />
    <glyph glyph-name="Omega" unicode="&#x2126;" horiz-adv-x="800" 
d="M750 0h-300v204q86 17 143 86t57 159q0 104 -73.5 177.5t-176.5 73.5t-176.5 -73.5t-73.5 -177.5q0 -90 57 -159t143 -86v-204h-300v100h200v33q-91 43 -144 125q-56 85 -56 191q0 145 102.5 248t247.5 103t247.5 -103t102.5 -248q0 -106 -54.5 -189.5t-145.5 -126.5v-33
h200v-100z" />
    <glyph glyph-name="logicalnot" unicode="&#xac;" horiz-adv-x="640" 
d="M590 240h-100v200h-440v100h540v-300z" />
    <glyph glyph-name="radical" unicode="&#x221a;" horiz-adv-x="761" 
d="M711 780l-327 -800l-190 373l-118 -31l-26 96l196 53l127 -251l229 560h109z" />
    <glyph glyph-name="approxequal" unicode="&#x2248;" horiz-adv-x="580" 
d="M530 500l-15 -20q-53 -70 -137 -70q-42 0 -84 22l-54 28q-19 10 -38 10q-35 0 -57 -30l-15 -20l-80 60l15 20q52 70 137 70q41 0 84 -22l53 -27q22 -11 39 -11q35 0 57 30l15 20zM530 300l-15 -20q-53 -70 -137 -70q-42 0 -84 22l-54 28q-19 10 -38 10q-35 0 -57 -30
l-15 -20l-80 60l15 20q52 70 137 70q41 0 84 -22l53 -27q22 -11 39 -11q35 0 57 30l15 20z" />
    <glyph glyph-name="approxequal" unicode="&#x22f2;" horiz-adv-x="580" 
d="M530 500l-15 -20q-53 -70 -137 -70q-42 0 -84 22l-54 28q-19 10 -38 10q-35 0 -57 -30l-15 -20l-80 60l15 20q52 70 137 70q41 0 84 -22l53 -27q22 -11 39 -11q35 0 57 30l15 20zM530 300l-15 -20q-53 -70 -137 -70q-42 0 -84 22l-54 28q-19 10 -38 10q-35 0 -57 -30
l-15 -20l-80 60l15 20q52 70 137 70q41 0 84 -22l53 -27q22 -11 39 -11q35 0 57 30l15 20z" />
    <glyph glyph-name="Delta" unicode="&#x394;" horiz-adv-x="914" 
d="M864 0h-814l407 800zM701 100l-244 480l-244 -480h488z" />
    <glyph glyph-name="Delta" unicode="&#x2206;" horiz-adv-x="914" 
d="M864 0h-814l407 800zM701 100l-244 480l-244 -480h488z" />
    <glyph glyph-name="nonbreakingspace" unicode="&#xa0;" horiz-adv-x="800" 
 />
    <glyph glyph-name="Agrave" unicode="&#xc0;" horiz-adv-x="874" 
d="M844 0h-112l-69 135h-452l-69 -135h-112l407 800zM612 235l-175 345l-176 -345h351zM547 922l-50 -87l-239 137l51 87z" />
    <glyph glyph-name="Atilde" unicode="&#xc3;" horiz-adv-x="874" 
d="M844 0h-112l-69 135h-452l-69 -135h-112l407 800zM612 235l-175 345l-176 -345h351zM658 956l-19 -35q-41 -76 -126 -76q-50 0 -85 26l-38 28q-8 6 -25 6q-25 0 -38 -24l-19 -35l-88 48l19 35q41 76 126 76q50 0 85 -26l38 -28q8 -6 25 -6q25 0 38 24l19 35z" />
    <glyph glyph-name="Otilde" unicode="&#xd5;" 
d="M860 390q0 -170 -120 -290t-290 -120t-290 120t-120 290t120 290t290 120t290 -120t120 -290zM760 390q0 129 -90.5 219.5t-219.5 90.5t-219.5 -90.5t-90.5 -219.5t90.5 -219.5t219.5 -90.5t219.5 90.5t90.5 219.5zM676 956l-19 -35q-41 -76 -126 -76q-50 0 -85 26
l-38 28q-8 6 -25 6q-25 0 -38 -24l-19 -35l-88 48l19 35q41 76 126 76q50 0 85 -26l38 -28q8 -6 25 -6q25 0 38 24l19 35z" />
    <glyph glyph-name="divide" unicode="&#xf7;" horiz-adv-x="560" 
d="M340 490h-120v120h120v-120zM510 340h-460v100h460v-100zM340 170h-120v120h120v-120z" />
    <glyph glyph-name="lozenge" unicode="&#x25ca;" horiz-adv-x="920" 
d="M870 390l-410 -410l-410 410l410 410zM728 390l-268 268l-268 -268l268 -268z" />
    <glyph glyph-name="ydieresis" unicode="&#xff;" horiz-adv-x="772" 
d="M732 780q-23 -187 -97 -299q-68 -103 -199 -195v-286h-100v286q-131 92 -199 195q-74 112 -97 299h101q20 -153 80 -245q56 -86 165 -163q109 77 165 163q60 92 80 245h101zM573 845h-130v130h130v-130zM329 845h-130v130h130v-130z" />
    <glyph glyph-name="Ydieresis" unicode="&#x178;" horiz-adv-x="772" 
d="M732 780q-23 -187 -97 -299q-68 -103 -199 -195v-286h-100v286q-131 92 -199 195q-74 112 -97 299h101q20 -153 80 -245q56 -86 165 -163q109 77 165 163q60 92 80 245h101zM573 845h-130v130h130v-130zM329 845h-130v130h130v-130z" />
    <glyph glyph-name="Acircumflex" unicode="&#xc2;" horiz-adv-x="874" 
d="M844 0h-112l-69 135h-452l-69 -135h-112l407 800zM612 235l-175 345l-176 -345h351zM644 845h-131l-77 91l-77 -91h-131l142 170h132z" />
    <glyph glyph-name="Ecircumflex" unicode="&#xca;" horiz-adv-x="750" 
d="M700 0h-650v780h650v-100h-550v-240h400v-100h-400v-240h550v-100zM583 845h-131l-77 91l-77 -91h-131l142 170h132z" />
    <glyph glyph-name="Aacute" unicode="&#xc1;" horiz-adv-x="874" 
d="M844 0h-112l-69 135h-452l-69 -135h-112l407 800zM612 235l-175 345l-176 -345h351zM614 972l-239 -137l-50 87l238 137z" />
    <glyph glyph-name="Edieresis" unicode="&#xcb;" horiz-adv-x="750" 
d="M700 0h-650v780h650v-100h-550v-240h400v-100h-400v-240h550v-100zM566 845h-130v130h130v-130zM322 845h-130v130h130v-130z" />
    <glyph glyph-name="Egrave" unicode="&#xc8;" horiz-adv-x="750" 
d="M700 0h-650v780h650v-100h-550v-240h400v-100h-400v-240h550v-100zM522 922l-50 -87l-239 137l51 87z" />
    <glyph glyph-name="Iacute" unicode="&#xcd;" horiz-adv-x="200" 
d="M150 0h-100v780h100v-780zM269 972l-239 -137l-50 87l238 137z" />
    <glyph glyph-name="Icircumflex" unicode="&#xce;" horiz-adv-x="200" 
d="M150 0h-100v780h100v-780zM309 845h-131l-77 91l-77 -91h-131l142 170h132z" />
    <glyph glyph-name="Idieresis" unicode="&#xcf;" horiz-adv-x="200" 
d="M150 0h-100v780h100v-780zM287 845h-130v130h130v-130zM43 845h-130v130h130v-130z" />
    <glyph glyph-name="Igrave" unicode="&#xcc;" horiz-adv-x="200" 
d="M150 0h-100v780h100v-780zM225 922l-50 -87l-239 137l51 87z" />
    <glyph glyph-name="Oacute" unicode="&#xd3;" 
d="M860 390q0 -170 -120 -290t-290 -120t-290 120t-120 290t120 290t290 120t290 -120t120 -290zM760 390q0 129 -90.5 219.5t-219.5 90.5t-219.5 -90.5t-90.5 -219.5t90.5 -219.5t219.5 -90.5t219.5 90.5t90.5 219.5zM595 972l-239 -137l-50 87l238 137z" />
    <glyph glyph-name="Ocircumflex" unicode="&#xd4;" 
d="M860 390q0 -170 -120 -290t-290 -120t-290 120t-120 290t120 290t290 120t290 -120t120 -290zM760 390q0 129 -90.5 219.5t-219.5 90.5t-219.5 -90.5t-90.5 -219.5t90.5 -219.5t219.5 -90.5t219.5 90.5t90.5 219.5zM660 845h-131l-77 91l-77 -91h-131l142 170h132z" />
    <glyph glyph-name="apple" unicode="&#xf000;" horiz-adv-x="787" 
d="M572 810q1 -6 1 -16q0 -57 -46 -113q-53 -63 -117 -65q-2 9 -2 21q0 55 43 106q55 65 121 67zM737 209q-92 -219 -190 -219q-45 0 -76.5 16t-56.5 16q-32 0 -65.5 -16t-65.5 -16q-87 0 -162 129q-71 122 -71 244q0 136 91 207q63 49 129 49q28 0 69.5 -15t67.5 -15
q20 0 58.5 15t80.5 15q108 0 170 -77q-94 -53 -94 -169q0 -117 115 -164z" />
    <glyph glyph-name="Ograve" unicode="&#xd2;" 
d="M860 390q0 -170 -120 -290t-290 -120t-290 120t-120 290t120 290t290 120t290 -120t120 -290zM760 390q0 129 -90.5 219.5t-219.5 90.5t-219.5 -90.5t-90.5 -219.5t90.5 -219.5t219.5 -90.5t219.5 90.5t90.5 219.5zM594 922l-50 -87l-239 137l51 87z" />
    <glyph glyph-name="Uacute" unicode="&#xda;" horiz-adv-x="770" 
d="M720 466q0 -172 -91 -291q-78 -104 -244 -189q-166 85 -244 189q-91 119 -91 291v314h100v-314q0 -141 71 -231q59 -75 164 -135q105 60 164 135q71 90 71 231v314h100v-314zM533 972l-239 -137l-50 87l238 137z" />
    <glyph glyph-name="Ucircumflex" unicode="&#xdb;" horiz-adv-x="770" 
d="M720 466q0 -172 -91 -291q-78 -104 -244 -189q-166 85 -244 189q-91 119 -91 291v314h100v-314q0 -141 71 -231q59 -75 164 -135q105 60 164 135q71 90 71 231v314h100v-314zM593 845h-131l-77 91l-77 -91h-131l142 170h132z" />
    <glyph glyph-name="Ugrave" unicode="&#xd9;" horiz-adv-x="770" 
d="M720 466q0 -172 -91 -291q-78 -104 -244 -189q-166 85 -244 189q-91 119 -91 291v314h100v-314q0 -141 71 -231q59 -75 164 -135q105 60 164 135q71 90 71 231v314h100v-314zM526 922l-50 -87l-239 137l51 87z" />
    </font>
</defs>
</svg>
